a b c d e f g h i j k l m n o p q r s t u v w x y z 0-9

October (2018) 720p - BDRip - x264 - DD5.1-Bollywooda2z

  • Views: 46
  • Author: stev
  • Date: 18-09-2018, 21:09
  • Category: O / 2018 / Bollywood DVDRips - HDRips
  • Rating:
    Description of the movie:
    October (2018) 720p - BDRip - x264 - DD5.1-Bollywooda2z



    Format                      : MPEG-4
    Format profile              : Base Media / Version 2
    Codec ID                    : mp42 (isom/iso2/avc1/mp41)
    File size                   : 1.00 GiB
    Duration                    : 1 h 55 min
    Overall bit rate            : 1 241 kb/s
    Encoded date                : UTC 2018-09-06 21:55:15
    Tagged date                 : UTC 2018-09-06 21:55:15
    Writing application         : HandBrake 1.1.1 2018061800
    
    Video
    ID                          : 1
    Format                      : AVC
    Format/Info                 : Advanced Video Codec
    Format profile              : Main@L3.1
    Format settings, CABAC      : Yes
    Format settings, RefFrames  : 4 frames
    Codec ID                    : avc1
    Codec ID/Info               : Advanced Video Coding
    Duration                    : 1 h 55 min
    Duration_LastFrame          : 42 ms
    Bit rate                    : 597 kb/s
    Width                       : 1 280 pixels
    Height                      : 536 pixels
    Display aspect ratio        : 2.40:1
    Frame rate mode             : Constant
    Frame rate                  : 24.000 FPS
    Color space                 : YUV
    Chroma subsampling          : 4:2:0
    Bit depth                   : 8 bits
    Scan type                   : Progressive
    Bits/(Pixel*Frame)          : 0.036
    Stream size                 : 493 MiB (48%)
    Writing library             : x264 core 155 r2901 7d0ff22
    Encoding settings           : cabac=1 / ref=1 / deblock=1:0:0 / analyse=0x1:0x111 / me=hex / subme=2 / psy=1 / psy_rd=1.00:0.00 / mixed_ref=0 / me_range=16 / chroma_me=1 / trellis=0 / 8x8dct=0 / cqm=0 / deadzone=21,11 / fast_pskip=1 / chroma_qp_offset=0 / threads=17 / lookahead_threads=4 / sliced_threads=0 / nr=0 / decimate=1 / interlaced=0 / bluray_compat=0 / constrained_intra=0 / bframes=3 / b_pyramid=2 / b_adapt=1 / b_bias=0 / direct=1 / weightb=1 / open_gop=0 / weightp=1 / keyint=240 / keyint_min=24 / scenecut=40 / intra_refresh=0 / rc_lookahead=10 / rc=2pass / mbtree=1 / bitrate=597 / ratetol=1.0 / qcomp=0.60 / qpmin=0 / qpmax=69 / qpstep=4 / cplxblur=20.0 / qblur=0.5 / vbv_maxrate=14000 / vbv_bufsize=14000 / nal_hrd=none / filler=0 / ip_ratio=1.40 / aq=1:1.00
    Encoded date                : UTC 2018-09-06 21:55:15
    Tagged date                 : UTC 2018-09-06 21:55:15
    Color range                 : Limited
    Color primaries             : BT.709
    Transfer characteristics    : BT.709
    Matrix coefficients         : BT.709
    Menus                       : 3
    
    Audio
    ID                          : 2
    Format                      : AC-3
    Format/Info                 : Audio Coding 3
    Format settings, Endianness : Big
    Codec ID                    : ac-3
    Duration                    : 1 h 55 min
    Bit rate mode               : Constant
    Bit rate                    : 640 kb/s
    Channel(s)                  : 6 channels
    Channel positions           : Front: L C R, Side: L R, LFE
    Sampling rate               : 48.0 kHz
    Frame rate                  : 31.250 FPS (1536 SPF)
    Bit depth                   : 16 bits
    Compression mode            : Lossy
    Stream size                 : 529 MiB (52%)
    Title                       : Surround / Surround
    Language                    : Hindi
    Service kind                : Complete Main
    Default                     : Yes
    Alternate group             : 1
    Encoded date                : UTC 2018-09-06 21:55:15
    Tagged date                 : UTC 2018-09-06 21:55:15
    Menus                       : 3
    
    Menu
    ID                          : 3
    Codec ID                    : text
    Duration                    : 1 h 55 min
    Language                    : English
    Encoded date                : UTC 2018-09-06 21:55:15
    Tagged date                 : UTC 2018-09-06 21:55:15
    Menu For                    : 1,2
    00:00:00.000                : Chapter 1
    00:02:04.917                : Chapter 2
    00:07:22.417                : Chapter 3
    00:12:34.833                : Chapter 4
    00:17:13.917                : Chapter 5
    00:26:18.583                : Chapter 6
    00:35:34.792                : Chapter 7
    00:47:16.917                : Chapter 8
    00:58:04.083                : Chapter 9
    01:06:41.583                : Chapter 10
    01:17:12.167                : Chapter 11
    01:22:31.583                : Chapter 12
    01:27:59.375                : Chapter 13
    01:32:29.750                : Chapter 14
    01:35:07.042                : Chapter 15
    01:41:30.000                : Chapter 16
    01:48:53.625                : Chapter 17
    Bit rate mode               : VBR
    
    


    October (2018) 720p - BDRip - x264 - DD5.1-Bollywooda2z

    SINGLE DIRECT FAST LINKS
    
    http://www.heroupload.us/d2c8b6e38c576c97/October.2018.mp4


    
    http://filefloater.com/30RA/October.2018.mp4


    Buy Premium From My Links & Support Me

    Comments

    Add Comment!


    Add comment

    Name:*
    E-Mail:
    Comment:
    • winkwinkedsmileam
      belayfeelfellowlaughing
      lollovenorecourse
      requestsadtonguewassat
      cryingwhatbullyangry
    Security Code: *
    reload, if the code cannot be seen