a b c d e f g h i j k l m n o p q r s t u v w x y z 0-9

Mukkabaaz (2018) 720p - HDRip - x264 - AAC-Bollywooda2z

  • Views: 33
  • Author: stev
  • Date: 18-09-2018, 21:08
  • Category: M / 2018 / Bollywood DVDRips - HDRips
  • Rating:
    Description of the movie:
    Mukkabaaz (2018) 720p - HDRip - x264 - AAC-Bollywooda2z



    Format                      : Matroska
    Format version              : Version 4 / Version 2
    File size                   : 1.40 GiB
    Duration                    : 2 h 35 min
    Overall bit rate            : 1 293 kb/s
    Encoded date                : UTC 2018-04-15 08:28:50
    Writing application         : mkvmerge v7.4.0 ('Circles') 64bit built on Dec 12 2014 12:19:56
    Writing library             : libebml v1.3.0 + libmatroska v1.4.1
    
    Video
    ID                          : 1
    Format                      : AVC
    Format/Info                 : Advanced Video Codec
    Format profile              : High@L4.1
    Format settings, CABAC      : Yes
    Format settings, RefFrames  : 4 frames
    Codec ID                    : V_MPEG4/ISO/AVC
    Duration                    : 2 h 35 min
    Bit rate                    : 1 200 kb/s
    Width                       : 1 280 pixels
    Height                      : 532 pixels
    Display aspect ratio        : 2.40:1
    Frame rate mode             : Constant
    Frame rate                  : 24.000 FPS
    Color space                 : YUV
    Chroma subsampling          : 4:2:0
    Bit depth                   : 8 bits
    Scan type                   : Progressive
    Bits/(Pixel*Frame)          : 0.073
    Stream size                 : 1.30 GiB (93%)
    Writing library             : x264 core 155 r2893 b00bcaf
    Encoding settings           : cabac=1 / ref=4 / deblock=1:-1:-1 / analyse=0x3:0x113 / me=hex / subme=3 / psy=1 / psy_rd=1.00:0.15 / mixed_ref=0 / me_range=16 / chroma_me=1 / trellis=0 / 8x8dct=1 / cqm=0 / deadzone=21,11 / fast_pskip=1 / chroma_qp_offset=0 / threads=12 / lookahead_threads=3 / sliced_threads=0 / nr=0 / decimate=1 / interlaced=0 / bluray_compat=0 / constrained_intra=0 / bframes=4 / b_pyramid=2 / b_adapt=1 / b_bias=0 / direct=1 / weightb=1 / open_gop=0 / weightp=2 / keyint=240 / keyint_min=24 / scenecut=40 / intra_refresh=0 / rc_lookahead=10 / rc=abr / mbtree=1 / bitrate=1200 / ratetol=1.0 / qcomp=0.60 / qpmin=0 / qpmax=69 / qpstep=4 / vbv_maxrate=62500 / vbv_bufsize=78125 / nal_hrd=none / filler=0 / ip_ratio=1.40 / aq=1:1.00
    Default                     : Yes
    Forced                      : No
    Color range                 : Limited
    Color primaries             : BT.709
    Transfer characteristics    : BT.709
    Matrix coefficients         : BT.709
    
    Audio
    ID                          : 2
    Format                      : AAC
    Format/Info                 : Advanced Audio Codec
    Format profile              : HE-AAC / LC
    Codec ID                    : A_AAC
    Duration                    : 2 h 35 min
    Bit rate                    : 96.0 kb/s
    Channel(s)                  : 2 channels
    Channel positions           : Front: L R
    Sampling rate               : 48.0 kHz / 24.0 kHz
    Frame rate                  : 23.438 FPS (1024 SPF)
    Compression mode            : Lossy
    Stream size                 : 105 MiB (7%)
    Language                    : Hindi
    Default                     : Yes
    Forced                      : No
    
    Text
    ID                          : 3
    Format                      : UTF-8
    Codec ID                    : S_TEXT/UTF8
    Codec ID/Info               : UTF-8 Plain Text
    Duration                    : 2 h 31 min
    Bit rate                    : 60 b/s
    Count of elements           : 2273
    Stream size                 : 66.9 KiB (0%)
    Default                     : Yes
    Forced                      : No
    
    

    Mukkabaaz (2018) 720p - HDRip - x264 - AAC-Bollywooda2z
    SINGLE DIRECT FAST LINKS
    
    http://www.heroupload.us/2083647b3cb4b0d7/Mukkabaaz.2018.mkv


    
    http://filefloater.com/30Rz/Mukkabaaz.2018.mkv


    Buy Premium From My Links & Support Me

    Comments

    Add Comment!


    Add comment

    Name:*
    E-Mail:
    Comment:
    • winkwinkedsmileam
      belayfeelfellowlaughing
      lollovenorecourse
      requestsadtonguewassat
      cryingwhatbullyangry
    Security Code: *
    reload, if the code cannot be seen