a b c d e f g h i j k l m n o p q r s t u v w x y z 0-9

Aiyaary (2018) 720p - HD-DVDRip - x264 - AAC-Bollywooda2z

  • Views: 19
  • Author: stev
  • Date: 18-09-2018, 20:33
  • Category: A / 2018 / Bollywood DVDRips - HDRips
  • Rating:
    Description of the movie:
    Aiyaary (2018) 720p - HD-DVDRip - x264 - AAC-Bollywooda2z



    Format                      : Matroska
    Format version              : Version 4 / Version 2
    File size                   : 671 MiB
    Duration                    : 2 h 38 min
    Overall bit rate            : 594 kb/s
    Encoded date                : UTC 2018-05-10 07:46:46
    Writing application         : mkvmerge v19.0.0 ('Brave Captain') 32-bit
    Writing library             : libebml v1.3.5 + libmatroska v1.4.8
    
    Video
    ID                          : 1
    Format                      : AVC
    Format/Info                 : Advanced Video Codec
    Format profile              : Main@L4
    Format settings, CABAC      : Yes
    Format settings, RefFrames  : 12 frames
    Codec ID                    : V_MPEG4/ISO/AVC
    Duration                    : 2 h 38 min
    Bit rate                    : 500 kb/s
    Width                       : 1 280 pixels
    Height                      : 540 pixels
    Display aspect ratio        : 2.40:1
    Frame rate mode             : Constant
    Frame rate                  : 23.976 (24000/1001) FPS
    Color space                 : YUV
    Chroma subsampling          : 4:2:0
    Bit depth                   : 8 bits
    Scan type                   : Progressive
    Bits/(Pixel*Frame)          : 0.030
    Stream size                 : 565 MiB (84%)
    Writing library             : x264 core 148 r2708 86b7198
    Encoding settings           : cabac=1 / ref=12 / deblock=1:0:0 / analyse=0x1:0x131 / me=umh / subme=10 / psy=1 / psy_rd=1.00:0.00 / mixed_ref=1 / me_range=24 / chroma_me=1 / trellis=2 / 8x8dct=0 / cqm=0 / deadzone=21,11 / fast_pskip=1 / chroma_qp_offset=-2 / threads=12 / lookahead_threads=2 / sliced_threads=0 / nr=0 / decimate=1 / interlaced=0 / bluray_compat=0 / constrained_intra=0 / bframes=8 / b_pyramid=2 / b_adapt=2 / b_bias=0 / direct=3 / weightb=1 / open_gop=0 / weightp=2 / keyint=240 / keyint_min=24 / scenecut=40 / intra_refresh=0 / rc_lookahead=60 / rc=2pass / mbtree=1 / bitrate=500 / ratetol=1.0 / qcomp=0.60 / qpmin=0 / qpmax=69 / qpstep=4 / cplxblur=20.0 / qblur=0.5 / vbv_maxrate=20000 / vbv_bufsize=25000 / nal_hrd=none / filler=0 / ip_ratio=1.40 / aq=1:1.00
    Default                     : Yes
    Forced                      : No
    Color range                 : Limited
    Color primaries             : BT.709
    Transfer characteristics    : BT.709
    Matrix coefficients         : BT.709
    
    Audio
    ID                          : 2
    Format                      : AAC
    Format/Info                 : Advanced Audio Codec
    Format profile              : LC
    Codec ID                    : A_AAC
    Duration                    : 2 h 38 min
    Bit rate                    : 91.9 kb/s
    Channel(s)                  : 6 channels
    Channel positions           : Front: L C R, Side: L R, LFE
    Sampling rate               : 48.0 kHz
    Frame rate                  : 46.875 FPS (1024 SPF)
    Compression mode            : Lossy
    Stream size                 : 104 MiB (15%)
    Default                     : Yes
    Forced                      : No
    
    

    Aiyaary (2018) 720p - HD-DVDRip - x264 - AAC-Bollywooda2z
    SINGLE DIRECT FAST LINKS
    
    http://www.heroupload.us/c6116c4e7e370d70/Aiyaary.2018.mkv


    
    http://filefloater.com/2AQs/Aiyaary.2018.mkv


    Buy Premium From My Links & Support Me

    Comments

    Add Comment!


    Add comment

    Name:*
    E-Mail:
    Comment:
    • winkwinkedsmileam
      belayfeelfellowlaughing
      lollovenorecourse
      requestsadtonguewassat
      cryingwhatbullyangry
    Security Code: *
    reload, if the code cannot be seen