a b c d e f g h i j k l m n o p q r s t u v w x y z 0-9

The Dangerous Hunter (Kakki Sattai) (2018) Hindi - 720p - WEB-HD - AVC - AAC-RG

  • Views: 94
  • Author: stev
  • Date: 13-09-2018, 00:25
  • Category: South Indian Hindi Dub Movies
  • Rating:
    Description of the movie:
    The Dangerous Hunter (Kakki Sattai) (2018) Hindi - 720p - WEB-HD - AVC - AAC-RG





    Format                      : MPEG-4
    Format profile              : Base Media
    Codec ID                    : isom (isom/iso2/avc1/mp41)
    File size                   : 1.39 GiB
    Duration                    : 2 h 10 min
    Overall bit rate            : 1 528 kb/s
    Writing application         : Lavf58.9.100
    
    Video
    ID                          : 1
    Format                      : AVC
    Format/Info                 : Advanced Video Codec
    Format profile              : High@L4
    Format settings, CABAC      : Yes
    Format settings, RefFrames  : 3 frames
    Codec ID                    : avc1
    Codec ID/Info               : Advanced Video Coding
    Duration                    : 2 h 10 min
    Bit rate                    : 1 394 kb/s
    Width                       : 1 920 pixels
    Height                      : 1 080 pixels
    Display aspect ratio        : 16:9
    Frame rate mode             : Constant
    Frame rate                  : 30.000 FPS
    Color space                 : YUV
    Chroma subsampling          : 4:2:0
    Bit depth                   : 8 bits
    Scan type                   : Progressive
    Bits/(Pixel*Frame)          : 0.022
    Stream size                 : 1.27 GiB (91%)
    Color range                 : Limited
    Color primaries             : BT.709
    Transfer characteristics    : BT.709
    Matrix coefficients         : BT.709
    
    Audio
    ID                          : 2
    Format                      : AAC
    Format/Info                 : Advanced Audio Codec
    Format profile              : LC
    Codec ID                    : 40
    Duration                    : 2 h 10 min
    Bit rate mode               : Constant
    Bit rate                    : 126 kb/s
    Channel(s)                  : 2 channels
    Channel positions           : Front: L R
    Sampling rate               : 44.1 kHz
    Frame rate                  : 43.066 FPS (1024 SPF)
    Compression mode            : Lossy
    Stream size                 : 117 MiB (8%)
    Language                    : English
    Default                     : Yes
    Alternate group             : 1
    
    

    The Dangerous Hunter (Kakki Sattai) (2018) Hindi - 720p - WEB-HD - AVC - AAC-RGThe Dangerous Hunter (Kakki Sattai) (2018) Hindi - 720p - WEB-HD - AVC - AAC-RGThe Dangerous Hunter (Kakki Sattai) (2018) Hindi - 720p - WEB-HD - AVC - AAC-RGThe Dangerous Hunter (Kakki Sattai) (2018) Hindi - 720p - WEB-HD - AVC - AAC-RGThe Dangerous Hunter (Kakki Sattai) (2018) Hindi - 720p - WEB-HD - AVC - AAC-RG

    SINGLE DIRECT FAST LINKS

    
    http://www.heroupload.us/9c54d76ac12e09b5/The.Dangerous.Hunter.Kaaki.Sattai.2018.Hindi.720p.WEB-HD.AVC.AAC-RG.mp4


    
    http://filefloater.com/2AO8/The.Dangerous.Hunter.Kaaki.Sattai.2018.Hindi.720p.WEB-HD.AVC.AAC-RG.mp4


    Buy Premium From My Links & Support Me

    Comments

    doymenum
    Author: doymenum   21 September 2018 19:21  |  Group: Visitors
    Могу рекомендовать Вам посетить сайт, на котором есть много статей на интересующую Вас тему.

    ---
    Какие трогательные слова :) масло из семян чиа польза, подарки женщинам в офисе и навязчивые мысли при депрессии рецепты из козьева молока


    --------------------

    Reply        
    acelnome
    Author: acelnome   21 September 2018 20:07  |  Group: Visitors
    Не могу сейчас поучаствовать в обсуждении - очень занят. Вернусь - обязательно выскажу своё мнение.

    ---
    Сообщение удалено рва банковский термин, предварительно одобрен кредит и андеррайтер в банке это липовая справка о доходах ответственность


    --------------------

    Reply        

    Add Comment!


    Add comment

    Name:*
    E-Mail:
    Comment:
    • winkwinkedsmileam
      belayfeelfellowlaughing
      lollovenorecourse
      requestsadtonguewassat
      cryingwhatbullyangry
    Security Code: *
    reload, if the code cannot be seen