a b c d e f g h i j k l m n o p q r s t u v w x y z 0-9

Uvaa (2015) 480p - HD-DVDRip - AVC - AAC-Bollywooda2z

  • Views: 108
  • Author: stev
  • Date: 11-09-2018, 01:01
  • Category: U / 2015 / Bollywood DVDRips - HDRips
  • Rating:
    Description of the movie:
    Uvaa (2015) 480p - HD-DVDRip - AVC - AAC-Bollywooda2z



    Format                      : MPEG-4
    Format profile              : Base Media
    Codec ID                    : isom (isom)
    File size                   : 1.27 GiB
    Duration                    : 2 h 12 min
    Overall bit rate mode       : Variable
    Overall bit rate            : 1 367 kb/s
    Encoded date                : UTC 2016-06-23 04:51:24
    Tagged date                 : UTC 2016-06-23 04:51:24
    
    Video
    ID                          : 1
    Format                      : AVC
    Format/Info                 : Advanced Video Codec
    Format profile              : Main@L3.1
    Format settings, CABAC      : Yes
    Format settings, RefFrames  : 8 frames
    Codec ID                    : avc1
    Codec ID/Info               : Advanced Video Coding
    Duration                    : 2 h 12 min
    Bit rate                    : 1 300 kb/s
    Maximum bit rate            : 4 868 kb/s
    Width                       : 720 pixels
    Height                      : 392 pixels
    Display aspect ratio        : 1.85:1
    Original display aspect rat : 1.85:1
    Frame rate mode             : Constant
    Frame rate                  : 29.970 (30000/1001) FPS
    Color space                 : YUV
    Chroma subsampling          : 4:2:0
    Bit depth                   : 8 bits
    Scan type                   : Progressive
    Bits/(Pixel*Frame)          : 0.154
    Stream size                 : 1.20 GiB (95%)
    Writing library             : x264 core 146 r2538 121396c
    Encoding settings           : cabac=1 / ref=8 / deblock=1:-1:-1 / analyse=0x1:0x131 / me=umh / subme=9 / psy=1 / psy_rd=1.00:0.15 / mixed_ref=1 / me_range=16 / chroma_me=1 / trellis=2 / 8x8dct=0 / cqm=0 / deadzone=21,11 / fast_pskip=1 / chroma_qp_offset=-3 / threads=12 / lookahead_threads=1 / sliced_threads=0 / nr=0 / decimate=1 / interlaced=0 / bluray_compat=0 / constrained_intra=0 / bframes=3 / b_pyramid=2 / b_adapt=2 / b_bias=0 / direct=3 / weightb=1 / open_gop=0 / weightp=2 / keyint=300 / keyint_min=29 / scenecut=40 / intra_refresh=0 / rc_lookahead=60 / rc=2pass / mbtree=1 / bitrate=1300 / ratetol=1.0 / qcomp=0.60 / qpmin=0 / qpmax=69 / qpstep=4 / cplxblur=20.0 / qblur=0.5 / vbv_maxrate=4000 / vbv_bufsize=4000 / nal_hrd=none / filler=0 / ip_ratio=1.40 / aq=1:1.00
    Encoded date                : UTC 2016-06-23 03:15:38
    Tagged date                 : UTC 2016-06-23 04:51:31
    
    Audio
    ID                          : 2
    Format                      : AAC
    Format/Info                 : Advanced Audio Codec
    Format profile              : LC
    Codec ID                    : 40
    Duration                    : 2 h 12 min
    Bit rate mode               : Variable
    Bit rate                    : 62.8 kb/s
    Maximum bit rate            : 98.4 kb/s
    Channel(s)                  : 2 channels
    Channel positions           : Front: L R
    Sampling rate               : 48.0 kHz
    Frame rate                  : 46.875 FPS (1024 SPF)
    Compression mode            : Lossy
    Stream size                 : 59.6 MiB (5%)
    Encoded date                : UTC 2016-06-22 12:01:31
    Tagged date                 : UTC 2016-06-23 04:51:31
    
    


    Uvaa (2015) 480p - HD-DVDRip - AVC - AAC-Bollywooda2z
    SINGLE DIRECT FAST LINKS
    
    http://www.heroupload.us/cc66212d347ba718/Uvaa.mp4


    
    http://filefloater.com/2AKZ/Uvaa.mp4


    Buy Premium From My Links & Support Me

    Comments

    rextvesType
    Author: rextvesType   12 September 2018 01:40  |  Group: Visitors
    Я считаю, что Вы допускаете ошибку. Давайте обсудим. Пишите мне в PM.

    ---
    Бесподобная тема, мне нравится :) смежные углы это, высота в геометрии это и онлайн калькулятор десятичных дробей как найти натуральное число


    --------------------

    Reply        
    swapmarpen
    Author: swapmarpen   12 September 2018 01:56  |  Group: Visitors
    Рекомендую поискать ответ на Ваш вопрос в google.com

    ---
    Вас посетила просто блестящая идея продажа девственности с аукциона, ютуб продажа девственности а также куплю право первой ночи обьявления о продажи девственности


    --------------------

    Reply        
    quikindfug
    Author: quikindfug   13 September 2018 04:51  |  Group: Visitors
    Ваша мысль очень хороша

    ---
    Жаль, что не смогу сейчас участвовать в обсуждении. Очень мало информации. Но эта тема меня очень интересует. как выглядит пурпурный чай чанг шу, пурпурный чай чанг шу полезные свойства и пурпурный чай чанг шу реальные отзывы тибетский чай пурпурный чай чанг шу


    --------------------

    Reply        
    ponicabah
    Author: ponicabah   18 September 2018 09:29  |  Group: Visitors
    Могу порекомендовать зайти на сайт, где есть много информации на интересующую Вас тему.

    ---
    Это просто великолепная фраза проститутки в кургане вызов, проститутка города курган а также Девушки ] Лучшие проститутки Кургана на любой вкус и цену старые проститутки курган


    --------------------

    Reply        
    Author: Dsadasd   14 November 2018 11:01  |  Group: Guests
    Подтверждаю. Так бывает. Давайте обсудим этот вопрос.

    ---
    это точно !! продажа девственности продам девственность барнаул, выставить девственность на продажу продам девственность и с девственницей девственность в россии продажа

    По моему мнению Вы допускаете ошибку. Давайте обсудим это. Пишите мне в PM, поговорим., знакомства для продам невинность продажи девственности или продать девственость продажа девственности иркутск

    Reply        

    Add Comment!


    Add comment

    Name:*
    E-Mail:
    Comment:
    • winkwinkedsmileam
      belayfeelfellowlaughing
      lollovenorecourse
      requestsadtonguewassat
      cryingwhatbullyangry
    Security Code: *
    reload, if the code cannot be seen