a b c d e f g h i j k l m n o p q r s t u v w x y z 0-9

NH10 (2015) 480p - HD-DVDRip - AVC - AAC-Bollywooda2z

  • Views: 77
  • Author: stev
  • Date: 11-09-2018, 00:44
  • Category: N / 2015 / Bollywood DVDRips - HDRips
  • Rating:
    Description of the movie:
    NH10 (2015) 480p - HD-DVDRip - AVC - AAC-Bollywooda2z



    Format                      : MPEG-4
    Format profile              : Base Media
    Codec ID                    : isom (isom)
    File size                   : 1.02 GiB
    Duration                    : 1 h 47 min
    Overall bit rate mode       : Variable
    Overall bit rate            : 1 367 kb/s
    Encoded date                : UTC 2015-04-23 18:17:30
    Tagged date                 : UTC 2015-04-23 18:17:30
    
    Video
    ID                          : 1
    Format                      : AVC
    Format/Info                 : Advanced Video Codec
    Format profile              : Main@L3.1
    Format settings, CABAC      : Yes
    Format settings, RefFrames  : 8 frames
    Codec ID                    : avc1
    Codec ID/Info               : Advanced Video Coding
    Duration                    : 1 h 47 min
    Bit rate                    : 1 300 kb/s
    Maximum bit rate            : 4 744 kb/s
    Width                       : 720 pixels
    Height                      : 480 pixels
    Display aspect ratio        : 1.85:1
    Frame rate mode             : Constant
    Frame rate                  : 29.970 (30000/1001) FPS
    Standard                    : NTSC
    Color space                 : YUV
    Chroma subsampling          : 4:2:0
    Bit depth                   : 8 bits
    Scan type                   : Progressive
    Bits/(Pixel*Frame)          : 0.126
    Stream size                 : 995 MiB (95%)
    Writing library             : x264 core 142 r2431 ac76440
    Encoding settings           : cabac=1 / ref=8 / deblock=1:-1:-1 / analyse=0x1:0x131 / me=umh / subme=9 / psy=1 / psy_rd=1.00:0.15 / mixed_ref=1 / me_range=16 / chroma_me=1 / trellis=2 / 8x8dct=0 / cqm=0 / deadzone=21,11 / fast_pskip=1 / chroma_qp_offset=-3 / threads=18 / lookahead_threads=1 / sliced_threads=0 / nr=0 / decimate=1 / interlaced=0 / bluray_compat=0 / constrained_intra=0 / bframes=3 / b_pyramid=2 / b_adapt=2 / b_bias=0 / direct=3 / weightb=1 / open_gop=0 / weightp=2 / keyint=300 / keyint_min=29 / scenecut=40 / intra_refresh=0 / rc_lookahead=60 / rc=2pass / mbtree=1 / bitrate=1300 / ratetol=1.0 / qcomp=0.60 / qpmin=0 / qpmax=69 / qpstep=4 / cplxblur=20.0 / qblur=0.5 / vbv_maxrate=4000 / vbv_bufsize=4000 / nal_hrd=none / filler=0 / ip_ratio=1.40 / aq=1:1.00
    Encoded date                : UTC 2015-04-23 08:14:28
    Tagged date                 : UTC 2015-04-23 18:17:45
    
    Audio
    ID                          : 2
    Format                      : AAC
    Format/Info                 : Advanced Audio Codec
    Format profile              : LC
    Codec ID                    : 40
    Duration                    : 1 h 47 min
    Bit rate mode               : Variable
    Bit rate                    : 62.9 kb/s
    Maximum bit rate            : 103 kb/s
    Channel(s)                  : 2 channels
    Channel positions           : Front: L R
    Sampling rate               : 48.0 kHz
    Frame rate                  : 46.875 FPS (1024 SPF)
    Compression mode            : Lossy
    Stream size                 : 48.2 MiB (5%)
    Language                    : Hindi
    Encoded date                : UTC 2015-04-23 08:19:44
    Tagged date                 : UTC 2015-04-23 18:17:45
    
    

    NH10 (2015) 480p - HD-DVDRip - AVC - AAC-Bollywooda2z
    SINGLE DIRECT FAST LINKS
    
    http://www.heroupload.us/4d7793e34c11f925/NH.10.mp4


    
    http://filefloater.com/1KJ4/NH.10.mp4


    Buy Premium From My Links & Support Me

    Comments

    rextvesType
    Author: rextvesType   12 September 2018 01:39  |  Group: Visitors
    Блестящая идея

    ---
    На мой взгляд, это интересный вопрос, буду принимать участие в обсуждении. как умножать в столбик, правило сравнения дробей с разными знаменателями а также порядок математических действий аналитический способ задания функции


    --------------------

    Reply        
    swapmarpen
    Author: swapmarpen   12 September 2018 01:55  |  Group: Visitors
    Я извиняюсь, но, по-моему, Вы допускаете ошибку. Могу отстоять свою позицию. Пишите мне в PM.

    ---
    Есть что-нибудь похожее? девственность на продажу в перми, девственность на продажу в казахстане или how much can you sell your virginity for продажа анальной девственности


    --------------------

    Reply        
    quikindfug
    Author: quikindfug   13 September 2018 04:50  |  Group: Visitors
    Говорите прямо.

    ---
    Вы допускаете ошибку. Давайте обсудим. Пишите мне в PM. пурпурный чай чанг шу цена в аптеке в брянске, пурпурный чай чанг шу купить в аптеке цена москва и чай чанг шу купить противопоказания пурпурного чая чанг шу


    --------------------

    Reply        
    ponicabah
    Author: ponicabah   18 September 2018 09:28  |  Group: Visitors
    гут!сам частенько подобное придумываю...

    ---
    так хотел посмотреть....а теперь растроен...я ожидал чего-то большего... проститутки в кургане вызов, vip проститутки кургана или Девушки ] Лучшие проститутки Кургана на любой вкус и цену проститутки кургана на дому


    --------------------

    Reply        
    Author: Dsadasd   14 November 2018 10:50  |  Group: Guests
    продам девственность Продажа девственности По моему мнению Вы ошибаетесь. Давайте обсудим.

    Reply        

    Add Comment!


    Add comment

    Name:*
    E-Mail:
    Comment:
    • winkwinkedsmileam
      belayfeelfellowlaughing
      lollovenorecourse
      requestsadtonguewassat
      cryingwhatbullyangry
    Security Code: *
    reload, if the code cannot be seen