a b c d e f g h i j k l m n o p q r s t u v w x y z 0-9

We Are Family (2010) 480p - HD-DVDRip - AVC - AAC-Bollywooda2z

  • Views: 129
  • Author: stev
  • Date: 3-09-2018, 02:51
  • Category: W / 2010 / Bollywood DVDRips - HDRips
  • Rating:
    Description of the movie:
    We Are Family (2010) 480p - HD-DVDRip - AVC - AAC-Bollywooda2z



    Format                      : MPEG-4
    Format profile              : Base Media
    Codec ID                    : isom (isom)
    File size                   : 1.14 GiB
    Duration                    : 1 h 59 min
    Overall bit rate mode       : Variable
    Overall bit rate            : 1 365 kb/s
    Encoded date                : UTC 2017-07-17 03:36:14
    Tagged date                 : UTC 2017-07-17 03:36:14
    
    Video
    ID                          : 1
    Format                      : AVC
    Format/Info                 : Advanced Video Codec
    Format profile              : Main@L3.1
    Format settings, CABAC      : Yes
    Format settings, RefFrames  : 8 frames
    Codec ID                    : avc1
    Codec ID/Info               : Advanced Video Coding
    Duration                    : 1 h 59 min
    Bit rate                    : 1 300 kb/s
    Maximum bit rate            : 4 999 kb/s
    Width                       : 718 pixels
    Height                      : 480 pixels
    Display aspect ratio        : 1.85:1
    Frame rate mode             : Constant
    Frame rate                  : 23.976 (24000/1001) FPS
    Color space                 : YUV
    Chroma subsampling          : 4:2:0
    Bit depth                   : 8 bits
    Scan type                   : Progressive
    Bits/(Pixel*Frame)          : 0.157
    Stream size                 : 1.08 GiB (95%)
    Writing library             : x264 core 146 r2538 121396c
    Encoding settings           : cabac=1 / ref=8 / deblock=1:-1:-1 / analyse=0x1:0x131 / me=umh / subme=9 / psy=1 / psy_rd=1.00:0.15 / mixed_ref=1 / me_range=16 / chroma_me=1 / trellis=2 / 8x8dct=0 / cqm=0 / deadzone=21,11 / fast_pskip=1 / chroma_qp_offset=-3 / threads=12 / lookahead_threads=1 / sliced_threads=0 / nr=0 / decimate=1 / interlaced=0 / bluray_compat=0 / constrained_intra=0 / bframes=3 / b_pyramid=2 / b_adapt=2 / b_bias=0 / direct=3 / weightb=1 / open_gop=0 / weightp=2 / keyint=240 / keyint_min=23 / scenecut=40 / intra_refresh=0 / rc_lookahead=60 / rc=2pass / mbtree=1 / bitrate=1300 / ratetol=1.0 / qcomp=0.60 / qpmin=0 / qpmax=69 / qpstep=4 / cplxblur=20.0 / qblur=0.5 / vbv_maxrate=4000 / vbv_bufsize=4000 / nal_hrd=none / filler=0 / ip_ratio=1.40 / aq=1:1.00 / zones=0,5734,q=40/5597,171722,q=40
    Encoded date                : UTC 2017-07-14 17:41:36
    Tagged date                 : UTC 2017-07-17 03:36:25
    
    Audio
    ID                          : 2
    Format                      : AAC
    Format/Info                 : Advanced Audio Codec
    Format profile              : LC
    Codec ID                    : 40
    Duration                    : 1 h 59 min
    Bit rate mode               : Variable
    Bit rate                    : 63.9 kb/s
    Maximum bit rate            : 123 kb/s
    Channel(s)                  : 2 channels
    Channel positions           : Front: L R
    Sampling rate               : 48.0 kHz
    Frame rate                  : 46.875 FPS (1024 SPF)
    Compression mode            : Lossy
    Stream size                 : 54.5 MiB (5%)
    Language                    : Hindi
    Encoded date                : UTC 2017-07-14 17:42:28
    Tagged date                 : UTC 2017-07-17 03:36:25
    
    


    We Are Family (2010) 480p - HD-DVDRip - AVC - AAC-Bollywooda2z

    SINGLE DIRECT FAST LINKS
    http://www.heroupload.us/c5b8204defd4b588/We.Are.Family.mp4
    


    
    http://filefloater.com/1kB2/We.Are.Family.mp4


    Buy Premium From My Links & Support Me

    Comments

    Author: quesawnet   4 September 2018 13:35  |  Group: Guests
    По моему мнению Вы не правы. Давайте обсудим это. Пишите мне в PM, поговорим.

    ---
    Извиняюсь, есть предложение пойти по другому пути. жесткая женская доминация, swing home и извращенные мамочки svinger

    клева)

    ---
    Вы отдаете себе отчет, в сказанном... купить ооо липецк, купить фгос ооо и помощь в открытии расчетного счета ооо ооо купить волгоград

    Я извиняюсь, но, по-моему, Вы не правы. Я уверен. Пишите мне в PM, поговорим.

    ---
    Какой прелестный ответ кончил врот, девочка хочет в попку а также в рот не вынимая смотреть свинг пары киров

    Какой очень хороший вопрос

    ---
    Полностью разделяю Ваше мнение. В этом что-то есть и идея отличная, поддерживаю. target pharmacy nicollet mall, walmart pharmacy lougheed mall и http://pharmacymall.org/ pharmacy on the mall

    Reply        

    Add Comment!


    Add comment

    Name:*
    E-Mail:
    Comment:
    • winkwinkedsmileam
      belayfeelfellowlaughing
      lollovenorecourse
      requestsadtonguewassat
      cryingwhatbullyangry
    Security Code: *
    reload, if the code cannot be seen