a b c d e f g h i j k l m n o p q r s t u v w x y z 0-9

Titli (2015) 720p - HD-DVDRip - AVC - AAC-Bollywooda2z

  • Views: 190
  • Author: stev
  • Date: 7-08-2018, 08:58
  • Category: T / 2015 / Bollywood DVDRips - HDRips
  • Rating:
    Description of the movie:
    Titli (2015) 720p - HD-DVDRip - AVC - AAC-Bollywooda2z



    General
    Complete name               : E:\Download C 2\4\Titli.720p.HD-DVD.AVC.AAC-BollywoodA2Z.mp4
    Format                      : MPEG-4
    Format profile              : Base Media
    Codec ID                    : isom (isom/avc1/mp42)
    File size                   : 1.02 GiB
    Duration                    : 1 h 52 min
    Overall bit rate mode       : Variable
    Overall bit rate            : 1 296 kb/s
    Encoded date                : UTC 2017-10-17 20:45:01
    Tagged date                 : UTC 2017-10-17 20:45:01
    
    Video
    ID                          : 1
    Format                      : AVC
    Format/Info                 : Advanced Video Codec
    Format profile              : [email protected]
    Format settings, CABAC      : Yes
    Format settings, RefFrames  : 4 frames
    Format settings, GOP        : M=3, N=25
    Codec ID                    : avc1
    Codec ID/Info               : Advanced Video Coding
    Duration                    : 1 h 52 min
    Bit rate                    : 1 197 kb/s
    Maximum bit rate            : 3 301 kb/s
    Width                       : 1 280 pixels
    Height                      : 720 pixels
    Display aspect ratio        : 16:9
    Frame rate mode             : Constant
    Frame rate                  : 25.000 FPS
    Color space                 : YUV
    Chroma subsampling          : 4:2:0
    Bit depth                   : 8 bits
    Scan type                   : Progressive
    Bits/(Pixel*Frame)          : 0.052
    Stream size                 : 966 MiB (92%)
    Writing library             : Zencoder Video Encoding System
    Encoded date                : UTC 2017-10-17 20:27:13
    Tagged date                 : UTC 2017-10-17 20:45:03
    Color range                 : Limited
    Color primaries             : BT.709
    Transfer characteristics    : BT.709
    Matrix coefficients         : BT.709
    
    Audio
    ID                          : 2
    Format                      : AAC
    Format/Info                 : Advanced Audio Codec
    Format profile              : LC
    Codec ID                    : 40
    Duration                    : 1 h 52 min
    Bit rate mode               : Variable
    Bit rate                    : 96.0 kb/s
    Maximum bit rate            : 119 kb/s
    Channel(s)                  : 2 channels
    Channel positions           : Front: L R
    Sampling rate               : 48.0 kHz
    Frame rate                  : 46.875 FPS (1024 SPF)
    Compression mode            : Lossy
    Stream size                 : 77.2 MiB (7%)
    Encoded date                : UTC 2017-10-17 20:09:55
    Tagged date                 : UTC 2017-10-17 20:45:03
    
    


    Titli (2015) 720p - HD-DVDRip - AVC - AAC-Bollywooda2z
    SINGLE DIRECT FAST LINKS
    
    http://www.heroupload.us/159a6e87f65ab2cd/Titli.720p.HD-DVD.AVC.AAC-BollywoodA2Z.mp4


    
    http://filefloater.com/29Rj/Titli.720p.HD-DVD.AVC.AAC-BollywoodA2Z.mp4


    Buy Premium From My Links & Support Me

    Comments

    Add Comment!


    Add comment

    Name:*
    E-Mail:
    Comment:
    • winkwinkedsmileam
      belayfeelfellowlaughing
      lollovenorecourse
      requestsadtonguewassat
      cryingwhatbullyangry
    Security Code: *
    reload, if the code cannot be seen