a b c d e f g h i j k l m n o p q r s t u v w x y z 0-9

Yuvvraaj (2008) 480p - HD-DVDRip - AVC - AAC-Bollywooda2z

  • Views: 16
  • Author: stev
  • Date: 1-09-2018, 17:02
  • Category: Y / 2008 / Bollywood DVDRips - HDRips
  • Rating:
    Description of the movie:
    Yuvvraaj (2008) 480p - HD-DVDRip - AVC - AAC-Bollywooda2z



    Format                      : MPEG-4
    Format profile              : Base Media
    Codec ID                    : isom (isom)
    File size                   : 1.36 GiB
    Duration                    : 2 h 38 min
    Overall bit rate mode       : Variable
    Overall bit rate            : 1 230 kb/s
    Encoded date                : UTC 2012-03-05 19:37:42
    Tagged date                 : UTC 2012-03-05 19:37:42
    
    Video
    ID                          : 1
    Format                      : AVC
    Format/Info                 : Advanced Video Codec
    Format profile              : High@L3.1
    Format settings, CABAC      : Yes
    Format settings, RefFrames  : 8 frames
    Codec ID                    : avc1
    Codec ID/Info               : Advanced Video Coding
    Duration                    : 2 h 38 min
    Bit rate                    : 1 100 kb/s
    Maximum bit rate            : 4 289 kb/s
    Width                       : 720 pixels
    Height                      : 480 pixels
    Display aspect ratio        : 1.85:1
    Original display aspect rat : 1.85:1
    Frame rate mode             : Constant
    Frame rate                  : 29.970 (30000/1001) FPS
    Standard                    : NTSC
    Color space                 : YUV
    Chroma subsampling          : 4:2:0
    Bit depth                   : 8 bits
    Scan type                   : Progressive
    Bits/(Pixel*Frame)          : 0.106
    Stream size                 : 1.22 GiB (89%)
    Writing library             : x264 core 120 r2164 da19765
    Encoding settings           : cabac=1 / ref=8 / deblock=1:0:0 / analyse=0x3:0x133 / me=umh / subme=9 / psy=1 / psy_rd=1.00:0.15 / mixed_ref=1 / me_range=16 / chroma_me=1 / trellis=2 / 8x8dct=1 / cqm=0 / deadzone=21,11 / fast_pskip=1 / chroma_qp_offset=-3 / threads=18 / sliced_threads=0 / nr=0 / decimate=1 / interlaced=0 / bluray_compat=0 / constrained_intra=0 / bframes=3 / b_pyramid=2 / b_adapt=2 / b_bias=1 / direct=3 / weightb=1 / open_gop=0 / weightp=2 / keyint=300 / keyint_min=29 / scenecut=60 / intra_refresh=0 / rc_lookahead=60 / rc=2pass / mbtree=1 / bitrate=1100 / ratetol=1.0 / qcomp=0.60 / qpmin=0 / qpmax=69 / qpstep=4 / cplxblur=20.0 / qblur=0.5 / ip_ratio=1.40 / aq=1:1.50
    Encoded date                : UTC 2012-03-02 17:27:44
    Tagged date                 : UTC 2012-03-05 19:38:14
    
    Audio
    ID                          : 2
    Format                      : AAC
    Format/Info                 : Advanced Audio Codec
    Format profile              : LC
    Codec ID                    : 67
    Duration                    : 2 h 38 min
    Bit rate mode               : Variable
    Bit rate                    : 126 kb/s
    Maximum bit rate            : 252 kb/s
    Channel(s)                  : 2 channels
    Channel positions           : Front: L R
    Sampling rate               : 44.1 kHz
    Frame rate                  : 43.066 FPS (1024 SPF)
    Compression mode            : Lossy
    Stream size                 : 143 MiB (10%)
    Encoded date                : UTC 2012-03-05 19:38:07
    Tagged date                 : UTC 2012-03-05 19:38:14
    
    

    Yuvvraaj (2008) 480p - HD-DVDRip - AVC - AAC-Bollywooda2z
    SINGLE DIRECT FAST LINKS
    http://www.heroupload.us/80aabe532f41eb71/Yuvvraaj.mp4
    


    
    http://filefloater.com/1kxH/Yuvvraaj.mp4


    Buy Premium From My Links & Support Me

    Comments

    Add Comment!


    Add comment

    Name:*
    E-Mail:
    Comment:
    • winkwinkedsmileam
      belayfeelfellowlaughing
      lollovenorecourse
      requestsadtonguewassat
      cryingwhatbullyangry
    Security Code: *
    reload, if the code cannot be seen