a b c d e f g h i j k l m n o p q r s t u v w x y z 0-9

Xcuse Me (2003) 720p - HD-DVDRip - AVC - AAC-Bollywooda2z

  • Views: 47
  • Author: stev
  • Date: 6-07-2018, 01:09
  • Category: X / 2003 / Bollywood DVDRips - HDRips
  • Rating:
    Description of the movie:
    Xcuse Me (2003) 720p - HD-DVDRip - AVC - AAC-Bollywooda2z



    General
    Format                      : MPEG-4
    Format profile              : Base Media
    Codec ID                    : isom (isom/iso2/avc1/mp41)
    File size                   : 1.56 GiB
    Duration                    : 2 h 24 min
    Overall bit rate mode       : Variable
    Overall bit rate            : 1 552 kb/s
    Writing application         : Lavf58.9.100
    
    Video
    ID                          : 1
    Format                      : AVC
    Format/Info                 : Advanced Video Codec
    Format profile              : Main@L3.2
    Format settings, CABAC      : Yes
    Format settings, RefFrames  : 4 frames
    Codec ID                    : avc1
    Codec ID/Info               : Advanced Video Coding
    Duration                    : 2 h 24 min
    Bit rate                    : 1 417 kb/s
    Nominal bit rate            : 1 500 kb/s
    Width                       : 1 280 pixels
    Height                      : 720 pixels
    Display aspect ratio        : 16:9
    Frame rate mode             : Constant
    Frame rate                  : 25.000 FPS
    Color space                 : YUV
    Chroma subsampling          : 4:2:0
    Bit depth                   : 8 bits
    Scan type                   : Progressive
    Bits/(Pixel*Frame)          : 0.061
    Stream size                 : 1.43 GiB (91%)
    Writing library             : x264 core 148 r2721 72d53ab
    Encoding settings           : cabac=1 / ref=1 / deblock=1:0:0 / analyse=0x1:0x111 / me=hex / subme=5 / psy=1 / psy_rd=1.00:0.00 / mixed_ref=0 / me_range=16 / chroma_me=1 / trellis=1 / 8x8dct=0 / cqm=0 / deadzone=21,11 / fast_pskip=1 / chroma_qp_offset=0 / threads=4 / lookahead_threads=1 / sliced_threads=0 / nr=0 / decimate=1 / interlaced=0 / bluray_compat=0 / stitchable=1 / constrained_intra=0 / bframes=3 / b_pyramid=2 / b_adapt=1 / b_bias=0 / direct=1 / weightb=1 / open_gop=0 / weightp=2 / keyint=86400 / keyint_min=20 / scenecut=40 / intra_refresh=0 / rc_lookahead=40 / rc=cbr / mbtree=1 / bitrate=1500 / ratetol=1.0 / qcomp=0.60 / qpmin=10 / qpmax=50 / qpstep=4 / vbv_maxrate=1500 / vbv_bufsize=1200 / nal_hrd=none / filler=0 / ip_ratio=1.41 / aq=1:1.00
    
    Audio
    ID                          : 2
    Format                      : AAC
    Format/Info                 : Advanced Audio Codec
    Format profile              : LC
    Codec ID                    : 40
    Duration                    : 2 h 24 min
    Bit rate mode               : Variable
    Bit rate                    : 128 kb/s
    Maximum bit rate            : 130 kb/s
    Channel(s)                  : 2 channels
    Channel positions           : Front: L R
    Sampling rate               : 44.1 kHz
    Frame rate                  : 43.066 FPS (1024 SPF)
    Compression mode            : Lossy
    Stream size                 : 132 MiB (8%)
    Default                     : Yes
    Alternate group             : 1
    
    


    Xcuse Me (2003) 720p - HD-DVDRip - AVC - AAC-Bollywooda2z
    SINGLE DIRECT FAST LINKS
    
    http://www.heroupload.us/9d15cfab8caf0045/Xcuse.Me.720p.HD-DVD.AVC.AAC-BollywoodA2Z.mp4


    
    http://filefloater.com/2zDG/Xcuse.Me.720p.HD-DVD.AVC.AAC-BollywoodA2Z.mp4


    Buy Premium From My Links & Support Me

    Comments

    Add Comment!


    Add comment

    Name:*
    E-Mail:
    Comment:
    • winkwinkedsmileam
      belayfeelfellowlaughing
      lollovenorecourse
      requestsadtonguewassat
      cryingwhatbullyangry
    Security Code: *
    reload, if the code cannot be seen