a b c d e f g h i j k l m n o p q r s t u v w x y z 0-9

Vijaypath (1994) 480p - HD-DVDRip - AVC - AAC-Bollywooda2z

  • Views: 27
  • Author: stev
  • Date: 21-08-2018, 17:46
  • Category: V / 1994 / Bollywood DVDRips - HDRips
  • Rating:
    Description of the movie:
    Vijaypath (1994) 480p - HD-DVDRip - AVC - AAC-Bollywooda2z



    eneral
    Complete name               : E:\Download C 2\1994\Vijaypath.mp4
    Format                      : MPEG-4
    Format profile              : Base Media
    Codec ID                    : isom (isom)
    File size                   : 1.50 GiB
    Duration                    : 2 h 37 min
    Overall bit rate mode       : Variable
    Overall bit rate            : 1 369 kb/s
    Encoded date                : UTC 2017-06-20 09:35:55
    Tagged date                 : UTC 2017-06-20 09:35:55
    
    Video
    ID                          : 1
    Format                      : AVC
    Format/Info                 : Advanced Video Codec
    Format profile              : Main@L3.1
    Format settings, CABAC      : Yes
    Format settings, RefFrames  : 8 frames
    Codec ID                    : avc1
    Codec ID/Info               : Advanced Video Coding
    Duration                    : 2 h 37 min
    Bit rate                    : 1 300 kb/s
    Maximum bit rate            : 4 782 kb/s
    Width                       : 700 pixels
    Height                      : 356 pixels
    Display aspect ratio        : 1.85:1
    Frame rate mode             : Constant
    Frame rate                  : 29.970 (30000/1001) FPS
    Color space                 : YUV
    Chroma subsampling          : 4:2:0
    Bit depth                   : 8 bits
    Scan type                   : Progressive
    Bits/(Pixel*Frame)          : 0.174
    Stream size                 : 1.43 GiB (95%)
    Writing library             : x264 core 146 r2538 121396c
    Encoding settings           : cabac=1 / ref=8 / deblock=1:-1:-1 / analyse=0x1:0x131 / me=umh / subme=9 / psy=1 / psy_rd=1.00:0.15 / mixed_ref=1 / me_range=16 / chroma_me=1 / trellis=2 / 8x8dct=0 / cqm=0 / deadzone=21,11 / fast_pskip=1 / chroma_qp_offset=-3 / threads=12 / lookahead_threads=1 / sliced_threads=0 / nr=0 / decimate=1 / interlaced=0 / bluray_compat=0 / constrained_intra=0 / bframes=3 / b_pyramid=2 / b_adapt=2 / b_bias=0 / direct=3 / weightb=1 / open_gop=0 / weightp=2 / keyint=300 / keyint_min=29 / scenecut=40 / intra_refresh=0 / rc_lookahead=60 / rc=2pass / mbtree=1 / bitrate=1300 / ratetol=1.0 / qcomp=0.60 / qpmin=0 / qpmax=69 / qpstep=4 / cplxblur=20.0 / qblur=0.5 / vbv_maxrate=4000 / vbv_bufsize=4000 / nal_hrd=none / filler=0 / ip_ratio=1.40 / aq=1:1.00
    Encoded date                : UTC 2017-06-20 07:49:15
    Tagged date                 : UTC 2017-06-20 09:36:04
    
    Audio
    ID                          : 2
    Format                      : AAC
    Format/Info                 : Advanced Audio Codec
    Format profile              : LC
    Codec ID                    : 40
    Duration                    : 2 h 37 min
    Bit rate mode               : Variable
    Bit rate                    : 64.0 kb/s
    Maximum bit rate            : 71.4 kb/s
    Channel(s)                  : 2 channels
    Channel positions           : Front: L R
    Sampling rate               : 48.0 kHz
    Frame rate                  : 46.875 FPS (1024 SPF)
    Compression mode            : Lossy
    Stream size                 : 72.0 MiB (5%)
    Encoded date                : UTC 2017-06-19 11:16:04
    Tagged date                 : UTC 2017-06-20 09:36:04
    
    

    Vijaypath (1994) 480p - HD-DVDRip - AVC - AAC-Bollywooda2z

    SINGLE DIRECT FAST LINKS
    
    http://www.heroupload.us/59602fa012ff5553/Vijaypath.mp4


    
    http://filefloater.com/1Knu/Vijaypath.mp4



    Buy Premium From My Links & Support Me

    Comments

    Add Comment!


    Add comment

    Name:*
    E-Mail:
    Comment:
    • winkwinkedsmileam
      belayfeelfellowlaughing
      lollovenorecourse
      requestsadtonguewassat
      cryingwhatbullyangry
    Security Code: *
    reload, if the code cannot be seen