a b c d e f g h i j k l m n o p q r s t u v w x y z 0-9

Sachin (2017) 720p - HD-DVDRip - x264 - AAC-Bollywooda2z

  • Views: 51
  • Author: stev
  • Date: 15-09-2018, 10:53
  • Category: S / 2017 / Bollywood DVDRips - HDRips
  • Rating:
    Description of the movie:
    Sachin (2017) 720p - HD-DVDRip - x264 - AAC-Bollywooda2z



    Format                      : Matroska
    Format version              : Version 4 / Version 2
    File size                   : 1.23 GiB
    Duration                    : 2 h 17 min
    Overall bit rate            : 1 275 kb/s
    Encoded date                : UTC 2017-08-17 16:14:16
    Writing application         : mkvmerge v14.0.0 ('Flow') 32bit
    Writing library             : libebml v1.3.4 + libmatroska v1.4.5
    
    Video
    ID                          : 1
    Format                      : AVC
    Format/Info                 : Advanced Video Codec
    Format profile              : High@L4.1
    Format settings, CABAC      : Yes
    Format settings, RefFrames  : 12 frames
    Codec ID                    : V_MPEG4/ISO/AVC
    Duration                    : 2 h 17 min
    Bit rate                    : 1 050 kb/s
    Width                       : 1 280 pixels
    Height                      : 536 pixels
    Display aspect ratio        : 2.40:1
    Frame rate mode             : Constant
    Frame rate                  : 24.000 FPS
    Color space                 : YUV
    Chroma subsampling          : 4:2:0
    Bit depth                   : 8 bits
    Scan type                   : Progressive
    Bits/(Pixel*Frame)          : 0.064
    Stream size                 : 1.01 GiB (82%)
    Title                       : Team M2Tv
    Writing library             : x264 core 148 r2744 b97ae06
    Encoding settings           : cabac=1 / ref=12 / deblock=1:0:0 / analyse=0x3:0x133 / me=umh / subme=10 / psy=1 / psy_rd=1.00:0.15 / mixed_ref=1 / me_range=24 / chroma_me=1 / trellis=2 / 8x8dct=1 / cqm=0 / deadzone=21,11 / fast_pskip=1 / chroma_qp_offset=-3 / threads=12 / lookahead_threads=2 / sliced_threads=0 / nr=0 / decimate=1 / interlaced=0 / bluray_compat=0 / constrained_intra=0 / bframes=8 / b_pyramid=2 / b_adapt=2 / b_bias=0 / direct=3 / weightb=1 / open_gop=0 / weightp=2 / keyint=230 / keyint_min=23 / scenecut=40 / intra_refresh=0 / rc_lookahead=60 / rc=2pass / mbtree=1 / bitrate=1050 / ratetol=1.0 / qcomp=0.60 / qpmin=10 / qpmax=51 / qpstep=4 / cplxblur=20.0 / qblur=0.5 / vbv_maxrate=40000 / vbv_bufsize=62500 / nal_hrd=none / filler=0 / ip_ratio=1.40 / aq=1:1.00
    Language                    : Hindi
    Default                     : Yes
    Forced                      : Yes
    Color range                 : Limited
    Color primaries             : BT.709
    Transfer characteristics    : BT.709
    Matrix coefficients         : BT.709
    
    Audio
    ID                          : 2
    Format                      : AC-3
    Format/Info                 : Audio Coding 3
    Format settings, Endianness : Big
    Codec ID                    : A_AC3
    Duration                    : 2 h 17 min
    Bit rate mode               : Constant
    Bit rate                    : 224 kb/s
    Channel(s)                  : 6 channels
    Channel positions           : Front: L C R, Side: L R, LFE
    Sampling rate               : 48.0 kHz
    Frame rate                  : 31.250 FPS (1536 SPF)
    Bit depth                   : 16 bits
    Compression mode            : Lossy
    Stream size                 : 221 MiB (18%)
    Title                       : Team M2Tv
    Language                    : Hindi
    Service kind                : Complete Main
    Default                     : Yes
    Forced                      : Yes
    
    Text
    ID                          : 3
    Format                      : UTF-8
    Codec ID                    : S_TEXT/UTF8
    Codec ID/Info               : UTF-8 Plain Text
    Duration                    : 2 h 15 min
    Bit rate                    : 78 b/s
    Count of elements           : 2036
    Stream size                 : 77.4 KiB (0%)
    Title                       : Team M2Tv
    Language                    : English
    Default                     : Yes
    Forced                      : Yes
    
    

    Sachin (2017) 720p - HD-DVDRip - x264 - AAC-Bollywooda2z
    SINGLE DIRECT FAST LINKS
    
    http://www.heroupload.us/e2ee8ecd0dd1149b/Sachin.A.Billion.Dreams.2017.mkv


    
    http://filefloater.com/30QG/Sachin.A.Billion.Dreams.2017.mkv


    Buy Premium From My Links & Support Me

    Comments

    doymenum
    Author: doymenum   21 September 2018 19:19  |  Group: Visitors
    Я думаю, что Вы ошибаетесь. Пишите мне в PM, пообщаемся.

    ---
    Я считаю, что Вы ошибаетесь. Пишите мне в PM, поговорим. фунчоза с уксусом рецепт, приготовить фунчозу дома и чем можно покрасить брови в домашних условиях бизнес идеи с нуля в домашних условиях


    --------------------

    Reply        
    swimispaw
    Author: swimispaw   21 September 2018 19:42  |  Group: Visitors
    Согласен с вами

    ---
    Вполне, все может быть услуги хакера в москве контакты, услуги хакера в нижнем новгороде а также Взлом вконтакте на заказ https://evilhack.ru/topic/88416-vzlom-vk-na-zakaz-whatsapp-i-pochty-bez-predopl
    aty/
    услуги хакера для взлома контакта


    --------------------

    Reply        
    acelnome
    Author: acelnome   21 September 2018 20:05  |  Group: Visitors
    Какой прелестный ответ

    ---
    просто класс!Даже не ожидала.Думала-будет хуже... гк рф гл 42, как сбербанк проверяет справку 2 ндфл или как оформить кредит андеррайтеров это


    --------------------

    Reply        
    povinony
    Author: povinony   21 September 2018 20:29  |  Group: Visitors
    есль ветром сдует?

    ---
    Это точно взлом голоса вконтакте, взлом вконтакте почты а также Заказать взлом почты https://vk-vzlomik.ru/ вконтакте бесплатный взлом


    --------------------

    Reply        
    comsiMup
    Author: comsiMup   21 September 2018 20:52  |  Group: Visitors
    Абсолютно не согласен

    ---
    не по теме!!! нужны услуги хакеров, хабаровск услуги хакеров или взлом на заказ http://xn----8sbatyjnbgr5c6b0b.xn--p1ai/topic/116-uslugi-opytnogo-khakera-i-vzl
    om-na-zakaz-zakazat/
    предлагаю услуги хакеров


    --------------------

    Reply        

    Add Comment!


    Add comment

    Name:*
    E-Mail:
    Comment:
    • winkwinkedsmileam
      belayfeelfellowlaughing
      lollovenorecourse
      requestsadtonguewassat
      cryingwhatbullyangry
    Security Code: *
    reload, if the code cannot be seen