a b c d e f g h i j k l m n o p q r s t u v w x y z 0-9

Qaidi Band (2017) 720p - HD-DVDRip - x264 - DD5.1-Bollywooda2z

  • Views: 50
  • Author: stev
  • Date: 15-09-2018, 10:35
  • Category: Q / 2017 / Bollywood DVDRips - HDRips
  • Rating:
    Description of the movie:
    Qaidi Band (2017) 720p - HD-DVDRip - x264 - DD5.1-Bollywooda2z



    Format                      : Matroska
    Format version              : Version 4 / Version 2
    File size                   : 1.12 GiB
    Duration                    : 2 h 1 min
    Overall bit rate            : 1 329 kb/s
    Encoded date                : UTC 2017-09-30 05:03:22
    Writing application         : mkvmerge v14.0.0 ('Flow') 32bit
    Writing library             : libebml v1.3.4 + libmatroska v1.4.5
    
    Video
    ID                          : 1
    Format                      : AVC
    Format/Info                 : Advanced Video Codec
    Format profile              : High@L4.1
    Format settings, CABAC      : Yes
    Format settings, RefFrames  : 4 frames
    Codec ID                    : V_MPEG4/ISO/AVC
    Duration                    : 2 h 1 min
    Bit rate                    : 1 104 kb/s
    Width                       : 1 280 pixels
    Height                      : 544 pixels
    Display aspect ratio        : 2.35:1
    Frame rate mode             : Constant
    Frame rate                  : 23.976 (24000/1001) FPS
    Color space                 : YUV
    Chroma subsampling          : 4:2:0
    Bit depth                   : 8 bits
    Scan type                   : Progressive
    Bits/(Pixel*Frame)          : 0.066
    Stream size                 : 956 MiB (83%)
    Title                       : LOKI
    Writing library             : x264 core 142 r2431 ac76440
    Encoding settings           : cabac=1 / ref=3 / deblock=1:-1:-1 / analyse=0x3:0x113 / me=hex / subme=7 / psy=1 / psy_rd=1.00:0.15 / mixed_ref=1 / me_range=16 / chroma_me=1 / trellis=1 / 8x8dct=1 / cqm=0 / deadzone=21,11 / fast_pskip=1 / chroma_qp_offset=-3 / threads=12 / lookahead_threads=2 / sliced_threads=0 / nr=0 / decimate=1 / interlaced=0 / bluray_compat=0 / constrained_intra=0 / bframes=3 / b_pyramid=2 / b_adapt=1 / b_bias=0 / direct=1 / weightb=1 / open_gop=0 / weightp=2 / keyint=240 / keyint_min=23 / scenecut=40 / intra_refresh=0 / rc_lookahead=40 / rc=2pass / mbtree=1 / bitrate=1104 / ratetol=1.0 / qcomp=0.60 / qpmin=0 / qpmax=69 / qpstep=4 / cplxblur=20.0 / qblur=0.5 / vbv_maxrate=62500 / vbv_bufsize=78125 / nal_hrd=none / filler=0 / ip_ratio=1.40 / aq=1:1.00
    Language                    : Hindi
    Default                     : Yes
    Forced                      : Yes
    
    Audio
    ID                          : 2
    Format                      : AC-3
    Format/Info                 : Audio Coding 3
    Format settings, Endianness : Big
    Codec ID                    : A_AC3
    Duration                    : 2 h 0 min
    Bit rate mode               : Constant
    Bit rate                    : 224 kb/s
    Channel(s)                  : 6 channels
    Channel positions           : Front: L C R, Side: L R, LFE
    Sampling rate               : 48.0 kHz
    Frame rate                  : 31.250 FPS (1536 SPF)
    Bit depth                   : 16 bits
    Compression mode            : Lossy
    Stream size                 : 194 MiB (17%)
    Title                       : LOKI
    Language                    : Hindi
    Service kind                : Complete Main
    Default                     : Yes
    Forced                      : Yes


    Qaidi Band (2017) 720p - HD-DVDRip - x264 - DD5.1-Bollywooda2z

    SINGLE DIRECT FAST LINKS
    
    http://www.heroupload.us/fa2afe4332ad9fc2/Qaidi.Band.2017.mkv


    
    http://filefloater.com/30QB/Qaidi.Band.2017.mkv


    Buy Premium From My Links & Support Me

    Comments

    doymenum
    Author: doymenum   21 September 2018 19:20  |  Group: Visitors
    Жаль, что сейчас не могу высказаться - тороплюсь на работу. Но вернусь - обязательно напишу что я думаю по этому вопросу.

    ---
    Я считаю, что Вы не правы. Я уверен. Давайте обсудим. Пишите мне в PM. как пожарить куриную печенку со сметаной, паштет рыбный в автоклаве или как проверить подлинность купюры 5000 сливочный соус для


    --------------------

    Reply        
    swimispaw
    Author: swimispaw   21 September 2018 19:44  |  Group: Visitors
    Хошу себе......

    ---
    Жаль, что сейчас не могу высказаться - тороплюсь на работу. Но вернусь - обязательно напишу что я думаю по этому вопросу. услуга хакеров в екатеринбурге, хакеры в хабаровске услуги и Найти хакера https://evilhack.ru/topic/88092-pomosch-khakera-srochno-okazhem-my-naiti-khaker
    a-dlia/
    услуги хакера в луганске


    --------------------

    Reply        
    acelnome
    Author: acelnome   21 September 2018 20:07  |  Group: Visitors
    блин ржачно пипец )))

    ---
    Это переходит все границы. банковский глоссарий, банковская терминология на русском а также кредит инфо справка 2 ндфл подделка ответственность


    --------------------

    Reply        
    povinony
    Author: povinony   21 September 2018 20:31  |  Group: Visitors
    ого!.... и такое бывает!...

    ---
    Я думаю, что Вы не правы. Пишите мне в PM, обсудим. взлом пароля вконтакте, взлом почты майл или Как взломать whatsapp https://vk-vzlomik.ru/how_hack_whatsapp.html вконтакте бесплатный взлом


    --------------------

    Reply        
    comsiMup
    Author: comsiMup   21 September 2018 20:55  |  Group: Visitors
    Я думаю, что Вы ошибаетесь. Могу отстоять свою позицию. Пишите мне в PM.

    ---
    Да, все логично услуги хакеров москва, услуги хакеров курск или заказать взлом http://xn----8sbatyjnbgr5c6b0b.xn--p1ai/topic/116-uslugi-opytnogo-khakera-i-vzl
    om-na-zakaz-zakazat/
    услуги хакера авито


    --------------------

    Reply        
    switsaggHova
    Author: switsaggHova   26 September 2018 04:14  |  Group: Visitors
    Бесподобная фраза, мне нравится :)

    ---
    Весьма забавный ответ порно ролики вк, жопы порно ролики и пишні форми жінок ролики порно юные


    --------------------

    Reply        
    terliGuem
    Author: terliGuem   26 September 2018 04:29  |  Group: Visitors
    Абсолютно не согласен с предыдущей фразой

    ---
    Как вариант, да порно мамки бесплатное, порно ретро бесплатно а также збс порно.ком толстые порно бесплатно


    --------------------

    Reply        

    Add Comment!


    Add comment

    Name:*
    E-Mail:
    Comment:
    • winkwinkedsmileam
      belayfeelfellowlaughing
      lollovenorecourse
      requestsadtonguewassat
      cryingwhatbullyangry
    Security Code: *
    reload, if the code cannot be seen