a b c d e f g h i j k l m n o p q r s t u v w x y z 0-9

Padman (2018) 720p - BDRip - x264 - DD5.1-Bollywooda2z

  • Views: 13
  • Author: stev
  • Date: 18-09-2018, 21:13
  • Category: P / 2018 / Bollywood DVDRips - HDRips
  • Rating:
    Description of the movie:
    Padman (2018) 720p - BDRip - x264 - DD5.1-Bollywooda2z



    Format                      : Matroska
    Format version              : Version 4 / Version 2
    File size                   : 1.27 GiB
    Duration                    : 2 h 16 min
    Overall bit rate            : 1 330 kb/s
    Encoded date                : UTC 2018-08-05 03:22:53
    Writing application         : mkvmerge v7.4.0 ('Circles') 64bit built on Dec 12 2014 12:19:56
    Writing library             : libebml v1.3.0 + libmatroska v1.4.1
    
    Video
    ID                          : 1
    Format                      : AVC
    Format/Info                 : Advanced Video Codec
    Format profile              : High@L4.1
    Format settings, CABAC      : Yes
    Format settings, RefFrames  : 4 frames
    Codec ID                    : V_MPEG4/ISO/AVC
    Duration                    : 2 h 16 min
    Bit rate                    : 1 100 kb/s
    Width                       : 1 280 pixels
    Height                      : 544 pixels
    Display aspect ratio        : 2.35:1
    Frame rate mode             : Constant
    Frame rate                  : 24.000 FPS
    Color space                 : YUV
    Chroma subsampling          : 4:2:0
    Bit depth                   : 8 bits
    Scan type                   : Progressive
    Bits/(Pixel*Frame)          : 0.066
    Stream size                 : 1.04 GiB (82%)
    Writing library             : x264 core 155 r2901 7d0ff22
    Encoding settings           : cabac=1 / ref=4 / deblock=1:0:0 / analyse=0x3:0x113 / me=hex / subme=3 / psy=1 / psy_rd=1.00:0.00 / mixed_ref=0 / me_range=16 / chroma_me=1 / trellis=0 / 8x8dct=1 / cqm=0 / deadzone=21,11 / fast_pskip=1 / chroma_qp_offset=0 / threads=12 / lookahead_threads=3 / sliced_threads=0 / nr=0 / decimate=1 / interlaced=0 / bluray_compat=0 / constrained_intra=0 / bframes=4 / b_pyramid=2 / b_adapt=1 / b_bias=0 / direct=1 / weightb=1 / open_gop=0 / weightp=2 / keyint=240 / keyint_min=24 / scenecut=40 / intra_refresh=0 / rc_lookahead=10 / rc=abr / mbtree=1 / bitrate=1100 / ratetol=1.0 / qcomp=0.60 / qpmin=0 / qpmax=69 / qpstep=4 / vbv_maxrate=50000 / vbv_bufsize=62500 / nal_hrd=none / filler=0 / ip_ratio=1.40 / aq=1:1.00
    Default                     : Yes
    Forced                      : No
    Color range                 : Limited
    Color primaries             : BT.709
    Transfer characteristics    : BT.709
    Matrix coefficients         : BT.709
    
    Audio
    ID                          : 2
    Format                      : AC-3
    Format/Info                 : Audio Coding 3
    Format settings, Endianness : Big
    Codec ID                    : A_AC3
    Duration                    : 2 h 16 min
    Bit rate mode               : Constant
    Bit rate                    : 224 kb/s
    Channel(s)                  : 6 channels
    Channel positions           : Front: L C R, Side: L R, LFE
    Sampling rate               : 48.0 kHz
    Frame rate                  : 31.250 FPS (1536 SPF)
    Bit depth                   : 16 bits
    Compression mode            : Lossy
    Delay relative to video     : -5 ms
    Stream size                 : 219 MiB (17%)
    Language                    : Hindi
    Service kind                : Complete Main
    Default                     : Yes
    Forced                      : No
    
    Text
    ID                          : 3
    Format                      : PGS
    Muxing mode                 : zlib
    Codec ID                    : S_HDMV/PGS
    Codec ID/Info               : Picture based subtitle format used on BDs/HD-DVDs
    Duration                    : 2 h 9 min
    Bit rate                    : 13.4 kb/s
    Count of elements           : 3927
    Stream size                 : 12.4 MiB (1%)
    Language                    : English
    Default                     : Yes
    Forced                      : No
    
    Menu
    00:00:00.000                : en:00:00:00.000
    00:02:34.542                : en:00:02:34.542
    00:10:40.917                : en:00:10:40.833
    00:17:54.083                : en:00:17:53.958
    00:26:49.625                : en:00:26:49.542
    00:31:10.417                : en:00:31:10.417
    00:37:23.917                : en:00:37:23.917
    00:40:06.917                : en:00:40:06.875
    00:43:04.417                : en:00:43:04.333
    00:53:36.583                : en:00:53:36.500
    00:56:51.792                : en:00:56:51.708
    01:02:38.750                : en:01:02:38.625
    01:10:17.000                : en:01:10:17.000
    01:14:44.958                : en:01:14:44.917
    01:25:29.458                : en:01:25:29.458
    01:32:12.750                : en:01:32:12.750
    01:41:18.750                : en:01:41:18.750
    01:49:07.750                : en:01:49:07.708
    01:54:18.375                : en:01:54:18.375
    02:10:05.458                : en:02:10:05.375
    
    

    Padman (2018) 720p - BDRip - x264 - DD5.1-Bollywooda2z
    SINGLE DIRECT FAST LINKS
    
    http://www.heroupload.us/e31175d9201b8d8a/Padman.2018.mkv


    
    http://filefloater.com/30RB/Padman.2018.mkv


    Buy Premium From My Links & Support Me

    Comments

    Add Comment!


    Add comment

    Name:*
    E-Mail:
    Comment:
    • winkwinkedsmileam
      belayfeelfellowlaughing
      lollovenorecourse
      requestsadtonguewassat
      cryingwhatbullyangry
    Security Code: *
    reload, if the code cannot be seen