a b c d e f g h i j k l m n o p q r s t u v w x y z 0-9

One Night Stand (2016) 720p - HD-DVDRip - AVC - AAC-Bollywooda2z

  • Views: 19
  • Author: stev
  • Date: 6-08-2018, 07:20
  • Category: O / 2016 / Bollywood DVDRips - HDRips
  • Rating:
    Description of the movie:
    One Night Stand (2016) 720p - HD-DVDRip - AVC - AAC-Bollywooda2z



    General
    Complete name               : E:\Download C 2\3\One.Night.Stand.720p.HD-DVD.AVC.AAC-BollywoodA2Z.mp4
    Format                      : MPEG-4
    Format profile              : Base Media
    Codec ID                    : isom (isom/avc1/mp42)
    File size                   : 866 MiB
    Duration                    : 1 h 33 min
    Overall bit rate mode       : Variable
    Overall bit rate            : 1 297 kb/s
    Encoded date                : UTC 2017-10-17 13:49:08
    Tagged date                 : UTC 2017-10-17 13:49:08
    
    Video
    ID                          : 1
    Format                      : AVC
    Format/Info                 : Advanced Video Codec
    Format profile              : High@L3.1
    Format settings, CABAC      : Yes
    Format settings, RefFrames  : 4 frames
    Format settings, GOP        : M=3, N=25
    Codec ID                    : avc1
    Codec ID/Info               : Advanced Video Coding
    Duration                    : 1 h 33 min
    Bit rate                    : 1 197 kb/s
    Maximum bit rate            : 3 453 kb/s
    Width                       : 1 280 pixels
    Height                      : 720 pixels
    Display aspect ratio        : 16:9
    Frame rate mode             : Constant
    Frame rate                  : 25.000 FPS
    Color space                 : YUV
    Chroma subsampling          : 4:2:0
    Bit depth                   : 8 bits
    Scan type                   : Progressive
    Bits/(Pixel*Frame)          : 0.052
    Stream size                 : 800 MiB (92%)
    Writing library             : Zencoder Video Encoding System
    Encoded date                : UTC 2017-10-17 13:34:32
    Tagged date                 : UTC 2017-10-17 13:49:09
    Color range                 : Limited
    Color primaries             : BT.601 NTSC
    Transfer characteristics    : BT.709
    Matrix coefficients         : BT.601
    
    Audio
    ID                          : 2
    Format                      : AAC
    Format/Info                 : Advanced Audio Codec
    Format profile              : LC
    Codec ID                    : 40
    Duration                    : 1 h 33 min
    Bit rate mode               : Variable
    Bit rate                    : 96.0 kb/s
    Maximum bit rate            : 124 kb/s
    Channel(s)                  : 2 channels
    Channel positions           : Front: L R
    Sampling rate               : 48.0 kHz
    Frame rate                  : 46.875 FPS (1024 SPF)
    Compression mode            : Lossy
    Stream size                 : 63.8 MiB (7%)
    Encoded date                : UTC 2017-10-17 13:20:12
    Tagged date                 : UTC 2017-10-17 13:49:09
    
    


    One Night Stand (2016) 720p - HD-DVDRip - AVC - AAC-Bollywooda2z
    SINGLE DIRECT FAST LINKS
    
    http://www.heroupload.us/cdeb51512ff9dc22/One.Night.Stand.720p.HD-DVD.AVC.AAC-BollywoodA2Z.mp4


    
    http://filefloater.com/29Ri/One.Night.Stand.720p.HD-DVD.AVC.AAC-BollywoodA2Z.mp4




    Buy Premium From My Links & Support Me

    Comments

    Add Comment!


    Add comment

    Name:*
    E-Mail:
    Comment:
    • winkwinkedsmileam
      belayfeelfellowlaughing
      lollovenorecourse
      requestsadtonguewassat
      cryingwhatbullyangry
    Security Code: *
    reload, if the code cannot be seen