a b c d e f g h i j k l m n o p q r s t u v w x y z 0-9

Commando 2 (2017) 720p - HD-DVDRip - x264 - AAC 5.1-Bollywooda2z

  • Views: 6
  • Author: stev
  • Date: 15-09-2018, 02:15
  • Category: C / 2017 / Bollywood DVDRips - HDRips
  • Rating:
    Description of the movie:
    Commando 2 (2017) 720p - HD-DVDRip - x264 - AAC 5.1-Bollywooda2z



    ormat                      : Matroska
    Format version              : Version 4 / Version 2
    File size                   : 1.46 GiB
    Duration                    : 2 h 3 min
    Overall bit rate            : 1 694 kb/s
    Encoded date                : UTC 2017-04-22 03:26:45
    Writing application         : mkvmerge v8.3.0 ('Over the Horizon') 64bit
    Writing library             : libebml v1.3.1 + libmatroska v1.4.2
    
    Video
    ID                          : 1
    Format                      : AVC
    Format/Info                 : Advanced Video Codec
    Format profile              : High@L4.1
    Format settings, CABAC      : Yes
    Format settings, RefFrames  : 12 frames
    Codec ID                    : V_MPEG4/ISO/AVC
    Duration                    : 2 h 3 min
    Bit rate                    : 1 500 kb/s
    Width                       : 1 280 pixels
    Height                      : 544 pixels
    Display aspect ratio        : 2.35:1
    Frame rate mode             : Constant
    Frame rate                  : 23.976 (24000/1001) FPS
    Color space                 : YUV
    Chroma subsampling          : 4:2:0
    Bit depth                   : 8 bits
    Scan type                   : Progressive
    Bits/(Pixel*Frame)          : 0.090
    Stream size                 : 1.29 GiB (89%)
    Writing library             : x264 core 148 r2744 b97ae06
    Encoding settings           : cabac=1 / ref=12 / deblock=1:0:0 / analyse=0x3:0x113 / me=umh / subme=11 / psy=1 / psy_rd=1.00:0.15 / mixed_ref=1 / me_range=48 / chroma_me=1 / trellis=2 / 8x8dct=1 / cqm=0 / deadzone=21,11 / fast_pskip=0 / chroma_qp_offset=-3 / threads=6 / lookahead_threads=1 / sliced_threads=0 / nr=0 / decimate=1 / interlaced=0 / bluray_compat=0 / constrained_intra=0 / bframes=12 / b_pyramid=2 / b_adapt=2 / b_bias=0 / direct=3 / weightb=1 / open_gop=0 / weightp=2 / keyint=240 / keyint_min=23 / scenecut=40 / intra_refresh=0 / rc_lookahead=40 / rc=2pass / mbtree=1 / bitrate=1500 / ratetol=1.0 / qcomp=0.60 / qpmin=0 / qpmax=69 / qpstep=4 / cplxblur=20.0 / qblur=0.5 / vbv_maxrate=62500 / vbv_bufsize=78125 / nal_hrd=none / filler=0 / ip_ratio=1.40 / aq=1:1.00
    Language                    : Hindi
    Default                     : Yes
    Forced                      : No
    Color range                 : Limited
    Color primaries             : Generic film
    Transfer characteristics    : BT.709
    Matrix coefficients         : BT.709
    
    Audio
    ID                          : 2
    Format                      : AAC
    Format/Info                 : Advanced Audio Codec
    Format profile              : LC
    Codec ID                    : A_AAC
    Duration                    : 2 h 3 min
    Bit rate                    : 192 kb/s
    Channel(s)                  : 6 channels
    Channel positions           : Front: L C R, Side: L R, LFE
    Sampling rate               : 48.0 kHz
    Frame rate                  : 46.875 FPS (1024 SPF)
    Compression mode            : Lossy
    Delay relative to video     : 9 ms
    Stream size                 : 169 MiB (11%)
    Language                    : Hindi
    Default                     : Yes
    Forced                      : No
    
    Text
    ID                          : 3
    Format                      : UTF-8
    Codec ID                    : S_TEXT/UTF8
    Codec ID/Info               : UTF-8 Plain Text
    Duration                    : 1 h 59 min
    Bit rate                    : 50 b/s
    Count of elements           : 1231
    Stream size                 : 43.9 KiB (0%)
    Language                    : English
    Default                     : Yes
    Forced                      : No
    
    


    Commando 2 (2017) 720p - HD-DVDRip - x264 - AAC 5.1-Bollywooda2z

    SINGLE DIRECT FAST LINKS
    
    http://www.heroupload.us/2155dc5701d132a7/Commando.2.2017.mkv


    
    http://filefloater.com/2APn/Commando.2.2017.mkv



    Buy Premium From My Links & Support Me

    Comments

    Add Comment!


    Add comment

    Name:*
    E-Mail:
    Comment:
    • winkwinkedsmileam
      belayfeelfellowlaughing
      lollovenorecourse
      requestsadtonguewassat
      cryingwhatbullyangry
    Security Code: *
    reload, if the code cannot be seen