a b c d e f g h i j k l m n o p q r s t u v w x y z 0-9

Vishwaroopam 2 (2018) Hindi Line Audio - 720p - HDRip - x264 - ESubs-AF Exclusive

  • Views: 35
  • Author: stev
  • Date: 14-09-2018, 00:50
  • Category: Bollywood Latest Movies CAM/pDVD/DVDscr
  • Rating:
    Description of the movie:
    Vishwaroopam 2 (2018) Hindi Line Audio - 720p - HDRip - x264 - ESubs-AF Exclusive





    Format                      : Matroska
    Format version              : Version 4 / Version 2
    File size                   : 1.42 GiB
    Duration                    : 2 h 24 min
    Overall bit rate            : 1 408 kb/s
    Encoded date                : UTC 2018-09-12 14:11:38
    Writing application         : mkvmerge v7.8.0 ('River Man') 64bit built on Mar 27 2015 16:31:37
    Writing library             : libebml v1.3.1 + libmatroska v1.4.2
    
    Video
    ID                          : 1
    Format                      : AVC
    Format/Info                 : Advanced Video Codec
    Format profile              : High@L3.1
    Format settings, CABAC      : Yes
    Format settings, RefFrames  : 4 frames
    Codec ID                    : V_MPEG4/ISO/AVC
    Duration                    : 2 h 24 min
    Bit rate                    : 1 286 kb/s
    Width                       : 1 280 pixels
    Height                      : 536 pixels
    Display aspect ratio        : 2.40:1
    Frame rate mode             : Constant
    Frame rate                  : 29.970 (30000/1001) FPS
    Color space                 : YUV
    Chroma subsampling          : 4:2:0
    Bit depth                   : 8 bits
    Scan type                   : Progressive
    Bits/(Pixel*Frame)          : 0.063
    Stream size                 : 1.29 GiB (91%)
    Writing library             : x264 core 152 r2851 ba24899
    Encoding settings           : cabac=1 / ref=1 / deblock=1:0:0 / analyse=0x3:0x3 / me=dia / subme=1 / psy=1 / psy_rd=1.00:0.00 / mixed_ref=0 / me_range=16 / chroma_me=1 / trellis=0 / 8x8dct=1 / cqm=0 / deadzone=21,11 / fast_pskip=1 / chroma_qp_offset=0 / threads=17 / lookahead_threads=2 / sliced_threads=0 / nr=0 / decimate=1 / interlaced=0 / bluray_compat=0 / constrained_intra=0 / bframes=3 / b_pyramid=2 / b_adapt=1 / b_bias=0 / direct=1 / weightb=1 / open_gop=0 / weightp=1 / keyint=300 / keyint_min=29 / scenecut=40 / intra_refresh=0 / rc=abr / mbtree=0 / bitrate=1286 / ratetol=1.0 / qcomp=0.60 / qpmin=0 / qpmax=69 / qpstep=4 / ip_ratio=1.40 / pb_ratio=1.30 / aq=1:1.00
    Language                    : English
    Default                     : Yes
    Forced                      : No
    
    Audio
    ID                          : 2
    Format                      : MPEG Audio
    Format version              : Version 1
    Format profile              : Layer 3
    Mode                        : Joint stereo
    Codec ID                    : A_MPEG/L3
    Codec ID/Hint               : MP3
    Duration                    : 2 h 24 min
    Bit rate mode               : Constant
    Bit rate                    : 128 kb/s
    Channel(s)                  : 2 channels
    Sampling rate               : 48.0 kHz
    Frame rate                  : 41.667 FPS (1152 SPF)
    Compression mode            : Lossy
    Stream size                 : 132 MiB (9%)
    Writing library             : LAME3.99r
    Encoding settings           : -m j -V 4 -q 3 -lowpass 17 -b 128
    Language                    : English
    Default                     : Yes
    Forced                      : No
    
    


    Vishwaroopam 2 (2018) Hindi Line Audio - 720p - HDRip - x264 - ESubs-AF ExclusiveVishwaroopam 2 (2018) Hindi Line Audio - 720p - HDRip - x264 - ESubs-AF ExclusiveVishwaroopam 2 (2018) Hindi Line Audio - 720p - HDRip - x264 - ESubs-AF ExclusiveVishwaroopam 2 (2018) Hindi Line Audio - 720p - HDRip - x264 - ESubs-AF ExclusiveVishwaroopam 2 (2018) Hindi Line Audio - 720p - HDRip - x264 - ESubs-AF Exclusive

    SINGLE DIRECT FAST LINKS
    
    http://www.heroupload.us/e70e301d8fd959ea/Vishwaroopam.2.2018.Hindi.Line.Audio.720p.HDRip.x264.ESubs-Exclusive.mkv


    
    http://filefloater.com/30PF/Vishwaroopam.2.2018.Hindi.Line.Audio.720p.HDRip.x264.ESubs-Exclusive.mkv



    Buy Premium From My Links & Support Me

    Comments

    Add Comment!


    Add comment

    Name:*
    E-Mail:
    Comment:
    • winkwinkedsmileam
      belayfeelfellowlaughing
      lollovenorecourse
      requestsadtonguewassat
      cryingwhatbullyangry
    Security Code: *
    reload, if the code cannot be seen