a b c d e f g h i j k l m n o p q r s t u v w x y z 0-9

Ab Tumhare Hawale Watan Saathiyo (2004) 720p - HD-DVDRip - AVC - AAC-Bollywooda2z

  • Views: 7
  • Author: stev
  • Date: 7-11-2018, 15:42
  • Category: A / 2004 / Bollywood DVDRips - HDRips
  • Rating:
    Description of the movie:
    Ab Tumhare Hawale Watan Saathiyo (2004) 720p - HD-DVDRip - AVC - AAC-Bollywooda2z



    Format                      : MPEG-4
    Format profile              : Base Media / Version 2
    Codec ID                    : mp42 (isom/mp42)
    File size                   : 1.53 GiB
    Duration                    : 3 h 12 min
    Overall bit rate mode       : Variable
    Overall bit rate            : 1 136 kb/s
    Encoded date                : UTC 2018-10-22 11:25:43
    Tagged date                 : UTC 2018-10-22 11:25:43
    gsst                        : 0
    gstd                        : 11561935
    
    Video
    ID                          : 1
    Format                      : AVC
    Format/Info                 : Advanced Video Codec
    Format profile              : Main@L3.1
    Format settings, CABAC      : Yes
    Format settings, RefFrames  : 3 frames
    Codec ID                    : avc1
    Codec ID/Info               : Advanced Video Coding
    Duration                    : 3 h 12 min
    Bit rate                    : 1 007 kb/s
    Width                       : 1 280 pixels
    Height                      : 720 pixels
    Display aspect ratio        : 16:9
    Frame rate mode             : Constant
    Frame rate                  : 25.000 FPS
    Color space                 : YUV
    Chroma subsampling          : 4:2:0
    Bit depth                   : 8 bits
    Scan type                   : Progressive
    Bits/(Pixel*Frame)          : 0.044
    Stream size                 : 1.36 GiB (89%)
    Title                       : ISO Media file produced by Google Inc. Created on: 10/22/2018.
    Encoded date                : UTC 2018-10-22 11:25:43
    Tagged date                 : UTC 2018-10-22 11:25:43
    Color range                 : Limited
    Color primaries             : BT.709
    Transfer characteristics    : BT.709
    Matrix coefficients         : BT.709
    
    Audio
    ID                          : 2
    Format                      : AAC
    Format/Info                 : Advanced Audio Codec
    Format profile              : LC
    Codec ID                    : 40
    Duration                    : 3 h 12 min
    Bit rate mode               : Variable
    Bit rate                    : 126 kb/s
    Channel(s)                  : 2 channels
    Channel positions           : Front: L R
    Sampling rate               : 44.1 kHz
    Frame rate                  : 43.066 FPS (1024 SPF)
    Compression mode            : Lossy
    Stream size                 : 173 MiB (11%)
    Title                       : ISO Media file produced by Google Inc. Created on: 10/22/2018.
    Language                    : English
    Encoded date                : UTC 2018-10-22 11:25:43
    Tagged date                 : UTC 2018-10-22 11:25:43
    
    

    Ab Tumhare Hawale Watan Saathiyo (2004) 720p - HD-DVDRip - AVC - AAC-Bollywooda2z
    SINGLE DIRECT FAST LINKS
    
    http://www.heroupload.us/71e7118d87e50a1d/Ab.Tumhare.Hawale.Watan.Sathiyo.720p-Bollywooda2z.mp4


    
    http://filefloater.com/1L9E/Ab.Tumhare.Hawale.Watan.Sathiyo.720p-Bollywooda2z.mp4


    Buy Premium From My Links & Support Me

    Comments

    Add Comment!


    Add comment

    Name:*
    E-Mail:
    Comment:
    • winkwinkedsmileam
      belayfeelfellowlaughing
      lollovenorecourse
      requestsadtonguewassat
      cryingwhatbullyangry
    Security Code: *
    reload, if the code cannot be seen